#TITLE:Deadline;
#SUBTITLE:Rollcage;
#ARTIST:Technical Itch;
#TITLETRANSLIT:;
#SUBTITLETRANSLIT:;
#ARTISTTRANSLIT:;
#CREDIT:;
#BANNER:Deadline.jpg;
#BACKGROUND:Deadline-bg.jpg;
#LYRICSPATH:;
#CDTITLE:vospi.png;
#MUSIC:Deadline.mp3;
#OFFSET:-0.085;
#SAMPLESTART:22.056;
#SAMPLELENGTH:20.460;
#SELECTABLE:YES;
#BPMS:0.000=175.000;
#STOPS:;
#BGCHANGES:;
// cache tags:
#FIRSTBEAT:1.000;
#LASTBEAT:288.000;
#SONGFILENAME:Songs/Music V.I.P ^_^/Deadline (Vospi)/Deadline.sm;
#HASMUSIC:1;
#HASBANNER:1;
#MUSICLENGTH:98.829;
// end cache tags

//---------------dance-single - ----------------
#NOTES:
     dance-single:
     :
     Hard:
     11:
     0.944,0.984,1.000,0.506,0.637,480.000,123.000,50.000,0.000,0.000:
0000
0200
0000
0000
,
0000
0000
0000
0000
,
0000
0000
0000
0000
,
0000
0000
0000
0000
,
0300
0000
0202
0000
0303
0202
0000
0303
,
0220
0000
0330
0220
0000
0000
0000
0330
,
0000
0000
0000
0000
,
0000
0000
0000
0000
,
0100
0000
0011
0100
0100
1000
0011
0000
,
0001
0000
0000
0000
0110
0000
1000
0000
1000
0010
0100
0000
1001
0000
0000
0000
,
0000
0000
0000
0000
0001
0000
0001
0000
0000
0001
0000
0000
0001
0000
0000
0000
,
0010
0000
0000
0010
0000
0000
0101
0000
0001
0100
0001
0000
1001
0000
0001
0000
,
0100
0000
0011
0100
0100
1000
0011
0000
,
1000
0000
0000
0000
0101
0000
0010
0000
0100
0001
0100
0000
1010
0000
0000
0000
,
0100
0000
1000
0100
0011
0000
0100
0010
0000
0010
0100
0000
1010
0000
0000
0000
,
0100
0000
1000
0100
0011
0000
0100
0001
0100
0010
0100
0001
0100
0010
0100
0001
,
0100
0000
0011
0100
0100
1000
0110
0000
,
0010
0000
1000
0001
0110
0000
1000
0100
1000
0100
0010
0000
0011
0000
0000
0000
,
0000
0000
0000
0000
0101
0000
0101
0000
0000
0011
0000
0000
0011
0000
0000
0000
,
0110
0000
0000
0110
0000
0000
0101
0000
0001
0100
0001
0000
1001
0000
0001
0000
,
0100
0000
0100
0000
0011
0000
0100
1000
0100
1000
0010
0000
0101
0000
0000
0000
,
0010
0000
0010
0000
1001
0000
0100
0010
0100
1000
0100
0000
0011
0000
0000
0000
,
0000
0000
0011
1100
0000
0011
1100
0000
,
0011
1100
0000
0011
1100
0000
0011
1100
,
0010
0000
0010
0000
1100
0000
0010
0001
0010
0001
0100
0000
0011
0000
0000
0000
,
0010
0000
0010
0000
1100
0000
0100
0010
0100
0010
1000
0000
0110
0000
0000
0000
,
1000
0000
0000
0000
0011
0000
1000
0010
1000
0010
0001
0000
0101
0000
1000
0000
,
0100
0000
0000
0000
0011
0000
1000
0100
1000
0100
1000
0000
0011
0000
0010
0000
,
1000
0000
0000
0000
0110
0000
0100
0001
0100
0001
0010
0000
0101
0000
0000
0000
,
0001
0000
0001
0000
1100
0000
0001
0100
0001
0100
1000
0000
0110
0000
0001
0000
,
0002
0000
0203
0000
0320
0000
0000
0000
0000
0030
0200
0000
0000
0000
0300
0000
,
1000
0000
0000
0000
0110
0000
1000
0000
0000
0000
0011
0000
0100
0010
0100
0010
,
1000
0000
0000
0000
0110
0000
0100
0001
0100
0001
0010
0000
0101
0000
0000
0000
,
0001
0000
0001
0000
1100
0000
0001
0100
0001
0100
1000
0000
0110
0000
0001
0000
,
0000
0000
0000
0000
0101
0000
0101
0000
0000
0011
0000
0000
0011
0000
0000
0000
,
0110
0000
0000
0110
0000
0000
0101
0000
0001
0100
0001
0000
1001
0000
0001
0000
,
0100
0000
0000
0000
0010
0000
1000
0100
1000
0100
0010
0000
0000
0100
0010
0000
,
0100
0000
0000
0000
0010
0000
0010
0001
0010
0001
0100
0000
0000
0100
1000
0000
,
0100
0000
0000
0000
0010
0000
0100
0001
0100
0001
0010
0000
0000
0010
0100
0000
,
0100
0000
0000
0000
0010
0000
0100
0001
0100
0001
0010
0000
0000
0010
0100
0000
,
0010
0000
0000
0000
0100
0000
0010
1000
0010
1000
0100
0000
0000
0100
0010
0000
,
0100
0000
0000
0000
0010
0000
0100
0001
0100
0001
0010
0000
0000
0010
0100
0000
,
0001
0000
0000
0000
1000
0000
0001
0010
0001
0010
1000
0000
0000
1000
0001
0000
,
0100
0000
0000
0000
0010
0000
1000
0010
1000
0010
0100
0000
0000
0010
0100
0000
,
0001
0000
0000
0000
1000
0000
0100
0001
0100
0001
0010
0000
0000
1000
0100
0000
,
0100
0000
0000
0000
0010
0000
0100
0001
0100
0001
0010
0000
0000
0010
0100
0000
,
0000
0000
0000
0000
0001
0000
0001
0000
0000
0001
0000
0000
0001
0000
0000
0000
,
0010
0000
0000
0010
0000
0000
0100
0000
0000
0100
0000
0000
1001
0000
0000
0000
,
1000
0000
0000
0000
1010
0000
0100
1000
0100
1000
0010
0000
0000
0010
1100
0000
,
0100
0000
0000
0000
0011
0000
0100
0001
0100
0001
1010
0000
0000
0010
1100
0000
,
0010
0000
0022
0000
0033
0022
0000
0033
,
0000
0000
0000
0000
0202
0000
0000
0000
0303
0000
0220
0000
0330
0000
2200
3300
,
0001
0000
0000
0000
0011
0000
1000
0010
1000
0010
0100
0000
0000
1000
0110
0000
,
0100
0000
0000
0000
0011
0000
1000
0010
1000
0010
0100
0000
0000
0100
0011
0000
,
1000
0000
0000
0000
1010
0000
0011
0000
0000
0110
0000
0000
1100
0000
0000
0000
,
0110
0000
0000
1010
0000
0000
0101
0000
0000
0011
0000
0000
0101
0000
0000
0000
,
0000
0000
0000
0000
0220
0000
0000
0000
0330
0000
0202
0000
0000
0303
0010
0000
,
0001
0000
0000
0000
0011
0000
1000
0010
1000
0010
0100
0000
0000
1000
0110
0000
,
0001
0000
0000
0000
0011
0000
1000
0010
1000
0010
0100
0000
0000
0010
1100
0000
,
0010
0000
0000
0000
0110
0000
0100
0010
0001
0010
0100
0000
0000
1000
0110
0000
,
0001
0000
0000
0000
1100
0000
0001
0010
0100
0010
0100
0000
0000
0010
0101
0000
,
1000
0000
0000
0000
0110
0000
0010
0001
0100
0010
0100
0000
0000
0010
0101
0000
,
0001
0000
0000
0000
1100
0000
0001
0010
0100
0010
0100
0000
0000
0010
1100
0000
,
0010
0000
0000
0000
0110
0000
0001
1000
0100
1000
0100
0000
0000
1000
0110
0000
,
0001
0000
0000
0000
1100
0000
0010
0100
0001
0010
0001
0000
0000
0001
0110
0000
,
1000
0000
0000
0000
0011
0000
1000
0100
0010
0100
0010
0000
0000
0100
1010
0000
,
0001
0000
0000
0000
1100
0000
0001
0010
0100
0010
0100
0000
0000
0010
0101
0000
,
0101
0000
0000
0000
0202
0000
0000
0000
0303
0000
0022
0000
0033
0000
2200
3300
,
0000
0000
2200
0000
3300
0220
0000
0330
,
0202
0000
0303
0022
0000
0000
0033
0000
,
1000
0000
0000
0000
0002
0000
0003
0020
0000
0030
0200
0300
0002
0000
0003
0000
,
2000
0000
3000
0020
0000
0030
0002
0000
0003
0200
0000
0300
2000
0000
0000
0000
,
3000
0000
0000
0000
;
